Facebook Mega-Nation Twitter Mega-Nation Skype - mega-nation foro mega   emule emuleemule AvastFreeAntivirus AvastFreeAntivirusAvastFreeAntivirus Ares AresAres
collapse

Autor Tema: The Big Bang Theory CAP.14:TEMPORADA 7 (FULLHD1080p) [Español]  (Leído 1034 veces)

Febrero 23, 2014, 03:02:18 am en

Ray

  • Staff
  • --Super Héroe--
  • *
  • *
  • Puntos: 50163

  • Desconectado

  • 1881
  • Karma:
    71288
  • Sexo
    Masculino

    Masculino
  • Pais:






Mostrar contenido
Citar
Complete name                            : C:\Users\RAY\Desktop\TBBT.7x14.m1080p.RAY_MEGAVICIO2014.mkv
Format                                   : Matroska
Format version                           : Version 4 / Version 2
File size                                : 426 MiB
Duration                                 : 20mn 40s
Overall bit rate                         : 2 877 Kbps
Movie name                               : TBBT.7x14.m1080p.RAY_MEGAVICIO2014
Encoded date                             : UTC 2014-02-21 23:18:25
Writing application                      : mkvmerge v6.5.0 ('Isn't she lovely') built on Oct 20 2013 12:50:05
Writing library                          : libebml v1.3.0 + libmatroska v1.4.1

Video
ID                                       : 1
Format                                   : AVC
Format/Info                              : Advanced Video Codec
Format profile                           : High@L4.0
Format settings, CABAC                   : Yes
Format settings, ReFrames                : 4 frames
Codec ID                                 : V_MPEG4/ISO/AVC
Duration                                 : 20mn 40s
Bit rate                                 : 2 500 Kbps
Width                                    : 1 916 pixels
Height                                   : 1 076 pixels
Display aspect ratio                     : 16:9
Frame rate mode                          : Constant
Frame rate                               : 23.976 fps
Color space                              : YUV
Chroma subsampling                       : 4:2:0
Bit depth                                : 8 bits
Scan type                                : Progressive
Bits/(Pixel*Frame)                       : 0.051
Stream size                              : 360 MiB (85%)
Title                                    : TBBT.7x14.m1080p.RAY_MEGAVICIO2014
Writing library                          : x264 core 138 r2358 9e941d1
Encoding settings                        : cabac=1 / ref=4 / deblock=1:-1:-1 / analyse=0x3:0x133 / me=umh / subme=8 / psy=1 / psy_rd=1.00:0.00 / mixed_ref=1 / me_range=16 / chroma_me=1 / trellis=1 / 8x8dct=1 / cqm=0 / deadzone=21,11 / fast_pskip=1 / chroma_qp_offset=-2 / threads=12 / lookahead_threads=2 / sliced_threads=0 / nr=0 / decimate=1 / interlaced=0 / bluray_compat=0 / constrained_intra=0 / bframes=3 / b_pyramid=2 / b_adapt=1 / b_bias=0 / direct=3 / weightb=1 / open_gop=0 / weightp=2 / keyint=240 / keyint_min=23 / scenecut=40 / intra_refresh=0 / rc_lookahead=50 / rc=2pass / mbtree=1 / bitrate=2500 / ratetol=1.0 / qcomp=0.60 / qpmin=0 / qpmax=69 / qpstep=4 / cplxblur=20.0 / qblur=0.5 / vbv_maxrate=20000 / vbv_bufsize=25000 / nal_hrd=none / ip_ratio=1.40 / aq=1:1.00
Default                                  : Yes
Forced                                   : No
Color primaries                          : BT.709
Transfer characteristics                 : BT.709
Matrix coefficients                      : BT.709

Audio #1
ID                                       : 2
Format                                   : AC-3
Format/Info                              : Audio Coding 3
Mode extension                           : CM (complete main)
Format settings, Endianness              : Big
Codec ID                                 : A_AC3
Duration                                 : 20mn 40s
Bit rate mode                            : Constant
Bit rate                                 : 192 Kbps
Channel(s)                               : 2 channels
Channel positions                        : Front: L R
Sampling rate                            : 48.0 KHz
Bit depth                                : 16 bits
Compression mode                         : Lossy
Stream size                              : 28.4 MiB (7%)
Title                                    : TBBT.7x14.m1080p.RAY_MEGAVICIO2014
Language                                 : Spanish
Default                                  : Yes
Forced                                   : Yes

Audio #2
ID                                       : 3
Format                                   : AC-3
Format/Info                              : Audio Coding 3
Mode extension                           : CM (complete main)
Format settings, Endianness              : Big
Codec ID                                 : A_AC3
Duration                                 : 20mn 40s
Bit rate mode                            : Constant
Bit rate                                 : 192 Kbps
Channel(s)                               : 2 channels
Channel positions                        : Front: L R
Sampling rate                            : 48.0 KHz
Bit depth                                : 16 bits
Compression mode                         : Lossy
Stream size                              : 28.4 MiB (7%)
Title                                    : TBBT.7x14.m1080p.RAY_MEGAVICIO2014
Language                                 : English
Default                                  : No
Forced                                   : No

Text #1
ID                                       : 4
Format                                   : UTF-8
Codec ID                                 : S_TEXT/UTF8
Codec ID/Info                            : UTF-8 Plain Text
Title                                    : Forzados
Language                                 : Spanish
Default                                  : Yes
Forced                                   : Yes

Text #2
ID                                       : 5
Format                                   : UTF-8
Codec ID                                 : S_TEXT/UTF8
Codec ID/Info                            : UTF-8 Plain Text
Title                                    : Completos
Language                                 : Spanish
Default                                  : No
Forced                                   : No

Text #3
ID                                       : 6
Format                                   : UTF-8
Codec ID                                 : S_TEXT/UTF8
Codec ID/Info                            : UTF-8 Plain Text
Title                                    : Completos
Language                                 : English
Default                                  : No
Forced                                   : No

VIENEN INTEGRADOS SUBTITULOS EN ESPAÑOL E INGLÉS PERO AUDIO SOLO ESPAÑOL



SE ESCUCHA MEJOR QUE LA OTRA VERSION QUE SUBI ANOCHE

ENLACE DIRECTO FORMATO MKV






mega-nationmega-nation


« Última modificación: Marzo 02, 2014, 22:37:15 pm por Ray »


No Tienes Permisos Para Dar Puntos
point 34 Puntos

Usuarios que puntuaron el tema » Rawl (10 Pts) » dheybytz (5 Pts) » Mary_Lury (9 Pts) » fortesque (5 Pts) » motomanu (5 Pts) 
Para poder comentar este tema debe Ingresar o Registrarse

Ad Mega-Nation


Febrero 23, 2014, 10:47:56 amRespuesta #1 en

Rawl

  • Usuario Senior
  • ***
  • Puntos: 386

  • Desconectado

  • 129
  • Karma:
    13
  • Sexo
    Masculino

    Masculino

  • ¡Descarga o aplasta!
  • Pais:
Por fin. Ya tengo el de audio en inglés, y ahora lo podré escuchar en castellano.

Gracias por el aporte. Esperando el siguiente, que es muy grande, el de la cena en el vagón restaurante.

¡Un saludo!
Para poder comentar este tema debe Ingresar o Registrarse

Febrero 23, 2014, 12:49:16 pmRespuesta #2 en

Ray

  • Staff
  • --Super Héroe--
  • *
  • *
  • Puntos: 50163

  • Desconectado

  • 1881
  • Karma:
    71288
  • Sexo
    Masculino

    Masculino
  • Pais:
Tienes que estar registrado para ver Links Registrar o Login
Por fin. Ya tengo el de audio en inglés, y ahora lo podré escuchar en castellano.

Gracias por el aporte. Esperando el siguiente, que es muy grande, el de la cena en el vagón restaurante.

¡Un saludo!



antes sale el cap 16 en inglés que vi que sale esta semana

A ver si subo Mom. Salu2 y gracias por los points. un karmita pa ti ;)

EDITO: Bajate la version en formato directo. Se escucha mejor. :)
« Última modificación: Febrero 23, 2014, 16:03:42 pm por Ray »
Para poder comentar este tema debe Ingresar o Registrarse

Febrero 24, 2014, 14:00:52 pmRespuesta #3 en

miguelrq62

  • Usuario Senior
  • ***
  • Puntos: 323

  • Desconectado

  • 118
  • Karma:
    2

  • Mega-Spain a tope!
Para poder comentar este tema debe Ingresar o Registrarse

Febrero 24, 2014, 17:25:30 pmRespuesta #4 en

DiegoCarone

  • Novato
  • *
  • Puntos: 69

  • Desconectado

  • 29
  • Karma:
    2

  • Mega-Nation a tope!
  • Pais:
Para poder comentar este tema debe Ingresar o Registrarse

Febrero 25, 2014, 16:45:58 pmRespuesta #5 en

fortesque

  • Usuario Senior
  • ***
  • Puntos: 444

  • Desconectado

  • 192
  • Karma:
    24
  • Sexo
    Masculino

    Masculino

  • Picnic at Hanging Rock (1975)
  • Pais:
El buen Cine es como nuestros sueños,en blanco y negro,con honrosas excepciones en color.
Para poder comentar este tema debe Ingresar o Registrarse

Febrero 27, 2014, 23:50:36 pmRespuesta #6 en

Orus

  • Usuario Senior
  • ***
  • Puntos: 255

  • Desconectado

  • 108
  • Karma:
    -4

  • Mega-Spain a tope!
Para poder comentar este tema debe Ingresar o Registrarse

Marzo 01, 2014, 10:15:13 amRespuesta #7 en

Rawl

  • Usuario Senior
  • ***
  • Puntos: 386

  • Desconectado

  • 129
  • Karma:
    13
  • Sexo
    Masculino

    Masculino

  • ¡Descarga o aplasta!
  • Pais:
Tienes que estar registrado para ver Links Registrar o Login
Tienes que estar registrado para ver Links Registrar o Login
Por fin. Ya tengo el de audio en inglés, y ahora lo podré escuchar en castellano.

Gracias por el aporte. Esperando el siguiente, que es muy grande, el de la cena en el vagón restaurante.

¡Un saludo!




antes sale el cap 16 en inglés que vi que sale esta semana

A ver si subo Mom. Salu2 y gracias por los points. un karmita pa ti ;)

EDITO: Bajate la version en formato directo. Se escucha mejor. :)

Descargando ipso-facto.

¡¡Karma y saludo para vos!!
Gracias

EDITO: Te han jodido el enlace y no se puede bajar. Pero imagino que ya lo sabías...
« Última modificación: Marzo 01, 2014, 10:19:43 am por Rawl »
Para poder comentar este tema debe Ingresar o Registrarse

Marzo 01, 2014, 10:36:45 amRespuesta #8 en

Ray

  • Staff
  • --Super Héroe--
  • *
  • *
  • Puntos: 50163

  • Desconectado

  • 1881
  • Karma:
    71288
  • Sexo
    Masculino

    Masculino
  • Pais:
te lo mando por privado, y este todavia va pero como ultimamente si posteo un enlace cae con la misma te lo paso por mp

saludos compi
Para poder comentar este tema debe Ingresar o Registrarse

Marzo 08, 2014, 13:41:54 pmRespuesta #9 en

diptero

  • Usuario Junior
  • **
  • Puntos: 161

  • Desconectado

  • 63
  • Karma:
    1

  • Mega-Spain a tope!
Para poder comentar este tema debe Ingresar o Registrarse

Abril 07, 2014, 18:27:52 pmRespuesta #10 en

davicete85

  • Novato
  • *
  • Puntos: 2

  • Desconectado

  • 1
  • Karma:
    0

  • Mega-Nation a tope!
  • Pais:
Para poder comentar este tema debe Ingresar o Registrarse

Junio 19, 2014, 13:20:51 pmRespuesta #11 en

sorprendado

  • Novato
  • *
  • Puntos: 40

  • Desconectado

  • 19
  • Karma:
    1

  • Mega-Nation a tope!
  • Pais:
Para poder comentar este tema debe Ingresar o Registrarse

Agosto 11, 2014, 10:40:59 amRespuesta #12 en

LUIMAX

  • Novato
  • *
  • Puntos: 66

  • Desconectado

  • 33
  • Karma:
    0

  • Mega-Nation a tope!
  • Pais:
    • Skype - LUISSEGURA Skype - LUISSEGURA
Para poder comentar este tema debe Ingresar o Registrarse

 

Publicidad

mega-nationmega-nation

mega-nationmega-nation

mega-nationmega-nation

mega-nation-nostalemega-nation